#TITLE:Lily;
#SUBTITLE:;
#ARTIST:Angela Zhang Shao Han;
#TITLETRANSLIT:Lily;
#SUBTITLETRANSLIT:;
#ARTISTTRANSLIT:Truong Thieu Ham;
#CREDIT:;
#BANNER:Lily-bn.png;
#BACKGROUND:Lily-bg.png;
#LYRICSPATH:;
#CDTITLE:pm4cd.png;
#MUSIC:Lily.mp3;
#OFFSET:0.020;
#SAMPLESTART:40.630;
#SAMPLELENGTH:20.000;
#SELECTABLE:YES;
#BPMS:0.000=148.020;
#STOPS:;
#BGCHANGES:;
// cache tags:
#FIRSTBEAT:0.500;
#LASTBEAT:422.500;
#SONGFILENAME:Songs/Music V.I.P ^_^/Lily/Lily.sm;
#HASMUSIC:1;
#HASBANNER:1;
#MUSICLENGTH:177.510;
// end cache tags

//---------------dance-single - ----------------
#NOTES:
     dance-single:
     :
     Hard:
     9:
     0.861,0.803,1.000,0.265,0.634,699.000,249.000,47.000,0.000,141.000:
0000
1000
0020
0000
0000
0230
0000
0000
,
1300
0001
0010
0100
1000
0001
0000
0100
,
0000
1100
0100
0011
0001
1100
0000
0010
,
0000
0101
0010
0100
1000
0001
0000
0100
,
0000
0000
0000
0000
0000
0000
0000
0000
0010
0000
0000
0000
0000
0001
0000
0000
0000
0000
0001
0000
0000
0000
0000
0100
0000
0000
0000
0000
0000
0000
0000
0000
0000
0000
0000
0000
0001
0000
0000
0000
0000
0010
0000
0000
0000
0000
0100
0000
0000
0000
0000
0100
0000
0000
0000
0000
1000
0000
0000
0000
0000
0000
0000
0000
,
0000
0000
0000
0000
0100
0000
0000
0000
0000
0010
0000
0000
0000
0000
1000
0000
0000
0000
0000
1000
0000
0000
0000
0000
0001
0000
0000
0000
0000
0000
0000
0000
0000
0000
0000
0000
0100
0000
0000
0000
0000
0010
0000
0000
0000
0000
0001
0000
0000
0000
0000
0001
0000
0000
0000
0000
1000
0000
0000
0000
0000
0000
0000
0000
,
0000
0000
0000
0000
0100
0000
0000
0000
0000
0010
0000
0000
0000
0000
0001
0000
0000
0000
0000
0001
0000
0000
0000
0000
0100
0000
0000
0000
0000
0000
0000
0000
0000
0000
0000
0000
0001
0000
0000
0000
0000
0010
0000
0000
0000
0000
0100
0000
0000
0000
0000
0100
0000
0000
0000
0000
1000
0000
0000
0000
0000
0000
0000
0000
,
0000
0000
0000
0000
0100
0000
0000
0000
0000
0010
0000
0000
0000
0000
1000
0000
0000
0000
0000
1000
0000
0000
0000
0000
0001
0000
0000
0000
0000
0000
0000
0000
0000
0000
0000
0000
0100
0000
0000
0000
0000
0010
0000
0000
0000
0000
0001
0000
0000
0000
0000
0001
0000
0000
0000
0000
1000
0000
0000
0000
0000
0000
0000
0000
,
0000
0000
0000
0000
0100
0000
0000
0000
0000
0010
0000
0000
0000
0000
1000
0000
0000
0000
0000
1000
0000
0000
0000
0000
0101
0000
0000
0000
0000
0000
0000
0000
0000
0000
0000
0000
1000
0000
0000
0000
0000
0010
0000
0000
0000
0000
0001
0000
0000
0000
0000
0001
0000
0000
0000
0000
1100
0000
0000
0000
0000
0000
0000
0000
,
0000
0000
0000
0000
0100
0000
0000
0000
0000
0010
0000
0000
0000
0000
0001
0000
0000
0000
0000
0001
0000
0000
0000
0000
1100
0000
0000
0000
0000
0000
0000
0000
0000
0000
0000
0000
0100
0000
0000
0000
0000
0010
0000
0000
0000
0000
1000
0000
0000
0000
0000
1000
0000
0000
0000
0000
0101
0000
0000
0000
0000
0000
0000
0000
,
0000
0000
0000
0000
0010
0000
0000
0000
0000
1000
0000
0000
0000
0000
0010
0000
0000
0000
0000
0010
0000
0000
0000
0000
0101
0000
0000
0000
0000
0000
0000
0000
0000
0000
0000
0000
0010
0000
0000
0000
0000
1000
0000
0000
0000
0000
0001
0000
0000
0000
0000
0001
0000
0000
0000
0000
1100
0000
0000
0000
0000
0000
0000
0000
,
0000
0000
0000
0000
0100
0000
0000
0000
0000
1000
0000
0000
0000
0000
0001
0000
0000
0000
0000
0001
0000
0000
0000
0000
1100
0000
0000
0000
0000
0000
0000
0000
0000
0000
0000
0000
0010
0000
0000
0000
0000
1000
0000
0000
0000
0000
0010
0000
0000
0000
0000
0010
0000
0000
0000
0000
0101
0000
0000
0000
0000
0000
0000
0000
,
0000
0000
0000
0000
1000
0000
0000
0000
0000
0001
0000
0000
0000
0000
1000
0000
0000
0000
0000
1000
0000
0000
0000
0000
0110
0000
0000
0000
0000
0000
0000
0000
0000
0000
0000
0000
0100
0000
0000
0000
0000
0001
0000
0000
0000
0000
0010
0000
0000
0000
0000
0010
0000
0000
0000
0000
1100
0000
0000
0000
0000
0000
0000
0000
,
0000
0000
0000
0000
0100
0000
0000
0000
0000
0001
0000
0000
0000
0000
0010
0000
0000
0000
0000
0010
0000
0000
0000
0000
1100
0000
0000
0000
0000
0000
0000
0000
0000
0000
0000
0000
0010
0000
0000
0000
0000
0001
0000
0000
0000
0000
1000
0000
0000
0000
0000
1000
0000
0000
0000
0000
0110
0000
0000
0000
0000
0000
0000
0000
,
0000
0000
0000
0000
0001
0000
0000
0000
0000
0100
0000
0000
0000
0000
1000
0000
0000
0000
0000
1000
0000
0000
0000
0000
0011
0000
0000
0000
0000
0000
0000
0000
0000
0000
0000
0000
0001
0000
0000
0000
0000
0100
0000
0000
0000
0000
0001
0000
0000
0000
0000
0001
0000
0000
0000
0000
1010
0000
0000
0000
0000
0000
0000
0000
,
0000
0000
0000
0000
0010
0000
0000
0000
0000
0100
0000
0000
0000
0000
0001
0000
0000
0000
0000
0001
0000
0000
0000
0000
1010
0000
0000
0000
0000
0000
0000
0000
0000
0000
0000
0000
0010
0000
0000
0000
0000
0100
0000
0000
0000
0000
1000
0000
0000
0000
0000
1000
0000
0000
0000
0000
0011
0000
0000
0000
0000
0000
0000
0000
,
0000
0100
0011
0000
0000
0000
1101
0000
0000
0000
0110
0000
0000
0000
1011
0000
,
0000
0110
0000
1011
0000
1100
0000
1110
,
0000
0101
0000
0111
0000
1010
0000
1101
,
0000
0101
0000
1110
0000
1010
0100
1011
,
0100
0011
0000
1101
0000
0110
0000
0111
,
0000
0110
0000
1011
0000
1100
0000
1110
,
0000
1001
0000
1110
0000
0110
0000
1101
,
0000
0011
0000
1101
0000
0110
0010
0111
,
0000
1000
0100
0010
0001
0000
0010
0100
,
1000
0112
0000
1000
0000
0110
0000
0010
,
0000
0003
1210
0000
0000
0000
0001
0000
0000
0000
0011
0000
0000
0000
0010
0000
,
0000
0300
2011
0000
0000
0000
0100
0000
0000
0000
0011
0000
0000
0000
0101
0000
,
0010
3000
0121
0000
0000
0000
1000
0000
0000
0000
1100
0000
1000
0000
0101
0000
,
0000
0030
1201
0000
0000
0000
0001
0000
0000
0000
1010
0000
0000
0000
1010
0000
,
0001
0300
1012
0000
0000
0000
0100
0000
0000
0000
1010
0000
0000
0000
1000
0000
,
0000
0003
2110
0000
0000
0000
0001
0000
0000
0000
0110
0000
0000
0000
0110
0000
,
0100
3000
0121
0000
0000
0000
1000
0000
0000
0000
1100
0000
0100
0000
1001
0000
,
0000
0030
2001
0000
0100
0000
0010
0000
0001
0000
0010
0000
0000
0000
0000
3000
,
0001
0010
0100
0010
0001
0010
0000
0202
,
0000
0000
0010
0000
1000
0000
0020
0003
0001
0000
1000
0000
0000
0000
2000
0000
,
0000
0030
0001
0000
0010
0000
0002
0000
3010
0000
2000
0000
0000
0000
0020
0000
,
0303
0000
0000
0000
3000
0000
0000
0000
1131
0000
0000
0000
0000
0000
0000
0000
0000
0000
0000
0000
0001
0000
0000
0000
0000
0010
0000
0000
0000
0000
1000
0000
0000
0000
0000
1000
0000
0000
0000
0000
0101
0000
0000
0000
0000
0000
0000
0000
0000
0000
0000
0000
0100
0000
0000
0000
0000
0010
0000
0000
0000
0000
0001
0000
,
0000
0000
0000
0001
0000
0000
0000
0000
0110
0000
0000
0000
0000
0000
0000
0000
0000
0000
0000
0000
1000
0000
0000
0000
0000
0100
0000
0000
0000
0000
1000
0000
0000
0000
0000
1000
0000
0000
0000
0000
0011
0000
0000
0000
0000
0000
0000
0000
0000
0000
0000
0000
0100
0000
0000
0000
0000
0010
0000
0000
0000
0000
1000
0000
,
0000
0000
0000
1000
0000
0000
0000
0000
0101
0000
0000
0000
0000
0000
0000
0000
0000
0000
0000
0000
0010
0000
0000
0000
0000
0001
0000
0000
0000
0000
0010
0000
0000
0000
0000
0010
0000
0000
0000
0000
1001
0000
0000
0000
0000
0000
0000
0000
0000
0000
0000
0000
0010
0000
0000
0000
0000
0100
0000
0000
0000
0000
1000
0000
,
0000
0000
0000
1000
0000
0000
0000
0000
0011
0000
0000
0000
0000
0000
0000
0000
0000
0000
0000
0000
0100
0000
0000
0000
0000
0010
0000
0000
0000
0000
0100
0000
0000
0000
0000
0100
0000
0000
0000
0000
1001
0000
0000
0000
0000
0000
0000
0000
0000
0000
0000
0000
1000
0000
0000
0000
0000
0001
0000
0000
0000
0000
0100
0000
,
0000
0000
0000
0100
0000
0000
0000
0000
0011
0000
0000
0000
0000
0000
0000
0000
0000
0000
0000
0000
1000
0000
0000
0000
0000
0010
0000
0000
0000
0000
0100
0000
0000
0000
0000
0100
0000
0000
0000
0000
1010
0000
0000
0000
0000
0000
0000
0000
0000
0000
0000
0000
0001
0000
0000
0000
0000
0010
0000
0000
0000
0000
0100
0000
,
0000
0000
0000
0100
0000
0000
0000
0000
0011
0000
0000
0000
0000
0000
0000
0000
0000
0000
0000
0000
1000
0000
0000
0000
0000
0100
0000
0000
0000
0000
0001
0000
0000
0000
0000
0001
0000
0000
0000
0000
0110
0000
0000
0000
0000
0000
0000
0000
0000
0000
0000
0000
0001
0000
0000
0000
0000
1000
0000
0000
0000
0000
0100
0000
,
0000
0000
0000
0100
0000
0000
0000
0000
1001
0000
0000
0000
0000
0000
0000
0000
0000
0000
0000
0000
1000
0000
0000
0000
0000
0010
0000
0000
0000
0000
1000
0000
0000
0000
0000
1000
0000
0000
0000
0000
0101
0000
0000
0000
0000
0000
0000
0000
0000
0000
0000
0000
0001
0000
0000
0000
0000
1000
0000
0000
0000
0000
0001
0000
,
0000
0000
0000
0001
0000
0000
0000
0000
1010
0000
0000
0000
0000
0000
0000
0000
0000
0000
0000
0000
0100
0000
0000
0000
0000
0010
0000
0000
0000
0000
1000
0000
0000
0000
0000
1000
0000
0000
0000
0000
0011
0000
0000
0000
0000
0000
0000
0000
0000
0000
0000
0000
0100
0000
0000
0000
0000
0001
0000
0000
0000
0000
0010
0000
,
0000
0000
0000
0010
0000
0000
0000
0000
1100
0000
0000
0000
0000
0000
0000
0000
0000
0000
0000
0000
0001
0000
0000
0000
0000
0010
0000
0000
0000
0000
0100
0000
0000
0000
0000
0100
0000
0000
0000
0000
1001
0000
0000
0000
0000
0000
0000
0000
0000
0000
0000
0000
1000
0000
0000
0000
0000
0010
0000
0000
0000
0000
1000
0000
,
0000
0000
0000
1000
0000
0000
0000
0000
0110
0000
0000
0000
0000
0000
0000
0000
0000
0000
0000
0000
0001
0000
0000
0000
0000
0100
0000
0000
0000
0000
1000
0000
0000
0000
0000
1000
0000
0000
0000
0000
0101
0000
0000
0000
0000
0000
0000
0000
0000
0000
0000
0000
0001
0000
0000
0000
0000
1000
0000
0000
0000
0000
0010
0000
,
0000
0000
0000
0010
0000
0000
0000
0000
1100
0000
0000
0000
0000
0000
0000
0000
0000
0000
0000
0000
0001
0000
0000
0000
0000
0010
0000
0000
0000
0000
0001
0000
0000
0000
0000
0001
0000
0000
0000
0000
1010
0000
0000
0000
0000
0000
0000
0000
0000
0000
0000
0000
0100
0000
0000
0000
0000
1000
0000
0000
0000
0000
0001
0000
,
0000
0000
0000
0001
0000
0000
0000
0000
1010
0000
0000
0000
0000
0000
0000
0000
0000
0000
0000
0000
0100
0000
0000
0000
0000
1000
0000
0000
0000
0000
0010
0000
0000
0000
0000
0010
0000
0000
0000
0000
1100
0000
0000
0000
0000
0000
0000
0000
0000
0000
0000
0000
0001
0000
0000
0000
0000
1000
0000
0000
0000
0000
0100
0000
,
0000
0000
0000
0100
0000
0000
0000
0000
1011
0000
0000
0000
0000
0000
0000
0000
0000
0000
0000
0000
0000
0000
0000
0000
1100
0000
0000
0000
0000
0000
0000
0000
0000
0000
0000
0000
0000
0000
0000
0000
0111
0000
0000
0000
0000
0000
0000
0000
0000
0000
0000
0000
0000
0000
0000
0000
0110
0000
0000
0000
0000
0000
0000
0000
,
0000
1101
0000
0011
0000
1011
0000
0110
,
0000
1101
0000
0011
0000
1110
0000
0110
,
0000
0111
0000
1100
0000
0111
1000
0101
,
0010
1101
0000
0011
0000
1110
0000
0110
,
0000
1011
0000
0110
0000
1101
0000
0011
,
0000
1110
0000
0011
0000
0111
0000
1100
,
0000
1011
0000
0110
0000
1101
0010
1100
,
0001
2110
0000
0011
0000
0001
0000
0110
,
0000
3000
0112
0000
0000
0000
1100
0000
0000
0000
1000
0000
0000
0000
0110
0000
,
0000
0003
2110
0000
0000
0000
0110
0000
0000
0000
0001
0000
0000
0000
0011
0000
,
0100
3000
0112
0000
0000
0000
0110
0000
0000
0000
1100
0000
0100
0000
0110
0000
,
0000
0003
2110
0000
0000
0000
0011
0000
0000
0000
0001
0000
0000
0000
0110
0000
,
0000
3000
0112
0000
0000
0000
1100
0000
0000
0000
1000
0000
0000
0000
1010
0000
,
0000
0003
2110
0000
0000
0000
0011
0000
0000
0000
0010
0000
0000
0000
0110
0000
,
0100
3000
0112
0000
0000
0000
0100
0000
0000
0000
1100
0000
0100
0000
0110
0000
,
0000
0003
1100
0000
0100
0000
0100
0000
0100
0000
0100
0000
0100
0000
0100
0000
,
0100
0010
0001
0000
0001
0000
0001
0000
0001
0000
0001
0000
0001
0000
0001
0001
,
0001
1000
1000
1000
1000
1000
1000
1000
,
1000
0100
0010
0000
0010
0000
0010
0000
0010
0000
0010
0000
0010
0000
0010
0010
,
0010
0001
0001
0001
0001
0001
0001
0001
,
0001
1000
0100
0000
0100
0000
0100
0000
0100
0000
0100
0000
0100
0000
0100
0100
,
0100
0010
0010
0010
0010
0010
0010
0010
,
0010
0001
1000
0000
1000
0000
1000
0000
1000
0000
1000
0000
1000
0000
1000
1000
,
1000
0200
0000
0000
0320
0000
0000
0000
,
0030
0000
1001
0010
0001
0010
0001
0010
0101
0010
0001
0010
0001
0010
1001
0010
,
0001
0010
2001
0000
0000
0000
0000
0000
3200
0000
0000
0000
0000
0000
0311
0000
,
0020
0000
0000
0032
0000
0000
0000
1103
,
0100
0000
0101
0010
0001
0010
0001
0010
1001
0010
0001
0010
0001
0010
0101
0010
,
0001
0010
0201
0000
0000
0000
0000
0000
2300
0000
0000
0000
0000
0000
3011
0000
,
0000
0000
1001
0010
0001
0010
0001
0010
0101
0010
0001
0010
0001
0010
1001
0010
,
0001
0010
0002
0000
0000
0000
0000
0000
0023
0000
0000
0000
0000
0000
1130
0000
,
0000
0200
0000
0000
0000
0320
0000
1031
,
0100
2101
0000
0011
0000
0010
0000
0110
,
0000
3000
0112
0000
0000
0000
1010
0000
0000
0000
0100
0000
0000
0000
0110
0000
,
0000
0003
2110
0000
0000
0000
0101
0000
0000
0000
0001
0000
0000
0000
0110
0000
,
0010
3000
0112
0000
0000
0000
1100
0000
0000
0000
1010
0000
0100
0000
1100
0000
,
0100
0003
1210
0000
0000
0000
0011
0000
0000
0000
0010
0000
0000
0000
1001
0000
,
0001
0300
1021
0000
0000
0000
0101
0000
0000
0000
0100
0000
0000
0000
1100
0000
,
0000
0030
1201
0000
0000
0000
1010
0000
0000
0000
0011
0000
0010
0000
1001
0000
,
0000
0300
1021
0000
0000
0000
0101
0000
0000
0000
0101
0000
0100
0000
1100
0000
,
0000
0030
1100
0000
0000
0000
0111
0000
0000
0000
0110
0000
0000
0000
1110
0000
,
0000
0011
0000
1101
0000
0110
0000
1011
,
0000
0110
0000
1110
0000
0011
0000
1110
,
0100
0011
0000
0111
0000
1010
0100
1011
,
0000
0110
0000
1011
0000
1100
0000
0111
,
0010
1100
0000
1011
0000
0011
0000
1110
,
0000
0110
0000
1011
0000
0110
0010
0111
,
0000
0011
0000
0111
0000
1100
0100
1011
,
0000
2100
0000
0010
0100
0100
0000
0000
,
3001
0101
0001
0011
0101
1001
0000
1101
,
0000
1010
1000
1001
0001
1010
1000
0100
,
1000
0000
0011
0001
0001
0000
0101
0000
0011
0000
1001
0000
0000
0000
1011
0000
,
0000
1100
1000
0000
1001
1000
0000
0010
,
1000
0001
0010
0100
1000
0100
0000
0001
,
0000
1000
0100
0000
0010
0001
0000
0000
,
0001
0010
0100
1000
0100
1001
0000
0000
;

//---------------dance-single - ----------------
#NOTES:
     dance-single:
     :
     Medium:
     1:
     0.000,0.000,0.000,0.000,0.000,0.000,0.000,0.000,0.000,0.000:
0000
0000
0000
0000
;

//---------------dance-single - ----------------
#NOTES:
     dance-single:
     :
     Easy:
     1:
     0.000,0.000,0.000,0.000,0.000,0.000,0.000,0.000,0.000,0.000:
0000
0000
0000
0000
;
